The Last Samurai (2003) (1080p Bluray x265 HEVC 10bit AAC 5.1 Tig...

  • Category Movies
  • Type HEVC/x265
  • Language English
  • Total size 4.0 GB
  • Uploaded By uploadhero
  • Downloads 187
  • Last checked 8 minutes ago
  • Date uploaded 1 day ago
  • Seeders 4
  • Leechers 0

The Last Samurai

ActionDramaHistoryWar

Nathan Algren is an American hired to instruct the Japanese army in the ways of modern warfare -- in this lush epic set in the 1870s, which finds Algren learning to respect the samurai and the honorable principles that rule them. Pressed to destroy the samurai's way of life in the name of modernization and open trade, Algren decides to become an ultimate warrior himself and to fight for their right to exist.

Infohash : 8D9C357E6CCC8CB049D0995510F9C6088036EE21

Code:

General
Unique ID                                : 220337507499486039087869895266321172361 (0xA5C375D9EC4830E29845C804303A0789)
Complete name                            : The Last Samurai 2003 (1080p x265 10bit Tigole).mkv
Format                                   : Matroska
Format version                           : Version 4 / Version 2
File size                                : 3.45 GiB
Duration                                 : 2 h 34 min
Overall bit rate                         : 3 199 kb/s
Encoded date                             : UTC 2017-03-16 08:44:05
Writing application                      : mkvmerge v9.6.0 ('Slave To Your Mind') 64bit
Writing library                          : libebml v1.3.4 + libmatroska v1.4.5

Video
ID                                       : 1
Format                                   : HEVC
Format/Info                              : High Efficiency Video Coding
Format profile                           : Main [email protected]@Main
Codec ID                                 : V_MPEGH/ISO/HEVC
Duration                                 : 2 h 34 min
Bit rate                                 : 2 737 kb/s
Width                                    : 1 920 pixels
Height                                   : 792 pixels
Display aspect ratio                     : 2.40:1
Frame rate mode                          : Constant
Frame rate                               : 23.976 (24000/1001) FPS
Color space                              : YUV
Chroma subsampling                       : 4:2:0
Bit depth                                : 10 bits
Bits/(Pixel*Frame)                       : 0.075
Stream size                              : 2.95 GiB (86%)
Writing library                          : x265 2.3+22-db5e22b856f5:[Windows][GCC 6.3.0][64 bit] 10bit
Encoding settings                        : cpuid=1173503 / frame-threads=3 / numa-pools=8 / wpp / no-pmode / no-pme / no-psnr / no-ssim / log-level=2 / input-csp=1 / input-res=1920x792 / interlace=0 / total-frames=221807 / level-idc=0 / high-tier=1 / uhd-bd=0 / ref=3 / no-allow-non-conformance / no-repeat-headers / annexb / no-aud / no-hrd / info / hash=0 / no-temporal-layers / open-gop / min-keyint=23 / keyint=250 / bframes=4 / b-adapt=2 / b-pyramid / bframe-bias=0 / rc-lookahead=20 / lookahead-slices=5 / scenecut=40 / no-intra-refresh / ctu=64 / min-cu-size=8 / no-rect / no-amp / max-tu-size=32 / tu-inter-depth=1 / tu-intra-depth=1 / limit-tu=0 / rdoq-level=0 / dynamic-rd=0.00 / signhide / no-tskip / nr-intra=0 / nr-inter=0 / no-constrained-intra / strong-intra-smoothing / max-merge=2 / limit-refs=3 / no-limit-modes / me=1 / subme=2 / merange=57 / temporal-mvp / weightp / no-weightb / no-analyze-src-pics / deblock=0:0 / sao / no-sao-non-deblock / rd=3 / no-early-skip / rskip / no-fast-intra / no-tskip-fast / no-cu-lossless / no-b-intra / rdpenalty=0 / psy-rd=2.00 / psy-rdoq=0.00 / no-rd-refine / analysis-mode=0 / no-lossless / cbqpoffs=0 / crqpoffs=0 / rc=abr / bitrate=2737 / qcomp=0.60 / qpstep=4 / stats-write=0 / stats-read=2 / cplxblur=20.0 / qblur=0.5 / ipratio=1.40 / pbratio=1.30 / aq-mode=2 / aq-strength=1.00 / cutree / zone-count=0 / no-strict-cbr / qg-size=32 / no-rc-grain / qpmax=69 / qpmin=0 / sar=0 / overscan=0 / videoformat=5 / range=0 / colorprim=2 / transfer=2 / colormatrix=2 / chromaloc=0 / display-window=0 / max-cll=0,0 / min-luma=0 / max-luma=1023 / log2-max-poc-lsb=8 / vui-timing-info / vui-hrd-info / slices=1 / opt-qp-pps / opt-ref-list-length-pps / no-multi-pass-opt-rps / scenecut-bias=0.05 / no-opt-cu-delta-qp / no-aq-motion / no-hdr / no-hdr-opt / refine-level=5
Default                                  : Yes
Forced                                   : No

Audio #1
ID                                       : 2
Format                                   : AAC
Format/Info                              : Advanced Audio Codec
Format profile                           : LC
Codec ID                                 : A_AAC
Duration                                 : 2 h 34 min
Bit rate                                 : 329 kb/s
Channel(s)                               : 6 channels
Channel positions                        : Front: L C R, Side: L R, LFE
Sampling rate                            : 48.0 kHz
Frame rate                               : 46.875 FPS (1024 SPF)
Compression mode                         : Lossy
Delay relative to video                  : 20 ms
Stream size                              : 363 MiB (10%)
Language                                 : English
Default                                  : Yes
Forced                                   : No

Audio #2
ID                                       : 3
Format                                   : AAC
Format/Info                              : Advanced Audio Codec
Format profile                           : HE-AAC / LC
Codec ID                                 : A_AAC
Duration                                 : 2 h 34 min
Bit rate                                 : 66.2 kb/s
Channel(s)                               : 2 channels
Channel positions                        : Front: L R
Sampling rate                            : 48.0 kHz / 24.0 kHz
Frame rate                               : 23.438 FPS (1024 SPF)
Compression mode                         : Lossy
Delay relative to video                  : 40 ms
Stream size                              : 72.5 MiB (2%)
Title                                    : Commentary
Language                                 : English
Default                                  : No
Forced                                   : No

Text #1
ID                                       : 4
Format                                   : VobSub
Muxing mode                              : zlib
Codec ID                                 : S_VOBSUB
Codec ID/Info                            : Picture based subtitle format used on DVDs
Duration                                 : 2 h 33 min
Bit rate                                 : 3 314 b/s
Count of elements                        : 1082
Stream size                              : 3.64 MiB (0%)
Language                                 : English
Default                                  : No
Forced                                   : No

Text #2
ID                                       : 5
Format                                   : VobSub
Muxing mode                              : zlib
Codec ID                                 : S_VOBSUB
Codec ID/Info                            : Picture based subtitle format used on DVDs
Duration                                 : 2 h 19 min
Bit rate                                 : 544 b/s
Count of elements                        : 195
Stream size                              : 558 KiB (0%)
Title                                    : Forced
Language                                 : English
Default                                  : No
Forced                                   : Yes

Text #3
ID                                       : 6
Format                                   : VobSub
Muxing mode                              : zlib
Codec ID                                 : S_VOBSUB
Codec ID/Info                            : Picture based subtitle format used on DVDs
Duration                                 : 2 h 33 min
Bit rate                                 : 2 140 b/s
Count of elements                        : 940
Stream size                              : 2.35 MiB (0%)
Language                                 : Arabic
Default                                  : No
Forced                                   : No

Text #4
ID                                       : 7
Format                                   : VobSub
Muxing mode                              : zlib
Codec ID                                 : S_VOBSUB
Codec ID/Info                            : Picture based subtitle format used on DVDs
Duration                                 : 2 h 33 min
Bit rate                                 : 2 797 b/s
Count of elements                        : 947
Stream size                              : 3.08 MiB (0%)
Language                                 : Bulgarian
Default                                  : No
Forced                                   : No

Text #5
ID                                       : 8
Format                                   : VobSub
Muxing mode                              : zlib
Codec ID                                 : S_VOBSUB
Codec ID/Info                            : Picture based subtitle format used on DVDs
Duration                                 : 2 h 33 min
Bit rate                                 : 2 823 b/s
Count of elements                        : 935
Stream size                              : 3.10 MiB (0%)
Language                                 : Chinese
Default                                  : No
Forced                                   : No

Text #6
ID                                       : 9
Format                                   : VobSub
Muxing mode                              : zlib
Codec ID                                 : S_VOBSUB
Codec ID/Info                            : Picture based subtitle format used on DVDs
Duration                                 : 2 h 33 min
Bit rate                                 : 2 754 b/s
Count of elements                        : 928
Stream size                              : 3.03 MiB (0%)
Language                                 : Croatian
Default                                  : No
Forced                                   : No

Text #7
ID                                       : 10
Format                                   : VobSub
Muxing mode                              : zlib
Codec ID                                 : S_VOBSUB
Codec ID/Info                            : Picture based subtitle format used on DVDs
Duration                                 : 2 h 33 min
Bit rate                                 : 2 408 b/s
Count of elements                        : 815
Stream size                              : 2.65 MiB (0%)
Language                                 : Czech
Default                                  : No
Forced                                   : No

Text #8
ID                                       : 11
Format                                   : VobSub
Muxing mode                              : zlib
Codec ID                                 : S_VOBSUB
Codec ID/Info                            : Picture based subtitle format used on DVDs
Duration                                 : 2 h 33 min
Bit rate                                 : 2 558 b/s
Count of elements                        : 716
Stream size                              : 2.81 MiB (0%)
Language                                 : Estonian
Default                                  : No
Forced                                   : No

Text #9
ID                                       : 12
Format                                   : VobSub
Muxing mode                              : zlib
Codec ID                                 : S_VOBSUB
Codec ID/Info                            : Picture based subtitle format used on DVDs
Duration                                 : 2 h 33 min
Bit rate                                 : 2 632 b/s
Count of elements                        : 882
Stream size                              : 2.89 MiB (0%)
Language                                 : Greek
Default                                  : No
Forced                                   : No

Text #10
ID                                       : 13
Format                                   : VobSub
Muxing mode                              : zlib
Codec ID                                 : S_VOBSUB
Codec ID/Info                            : Picture based subtitle format used on DVDs
Duration                                 : 2 h 33 min
Bit rate                                 : 2 524 b/s
Count of elements                        : 940
Stream size                              : 2.78 MiB (0%)
Language                                 : Hebrew
Default                                  : No
Forced                                   : No

Text #11
ID                                       : 14
Format                                   : VobSub
Muxing mode                              : zlib
Codec ID                                 : S_VOBSUB
Codec ID/Info                            : Picture based subtitle format used on DVDs
Duration                                 : 2 h 33 min
Bit rate                                 : 2 498 b/s
Count of elements                        : 844
Stream size                              : 2.75 MiB (0%)
Language                                 : Hungarian
Default                                  : No
Forced                                   : No

Text #12
ID                                       : 15
Format                                   : VobSub
Muxing mode                              : zlib
Codec ID                                 : S_VOBSUB
Codec ID/Info                            : Picture based subtitle format used on DVDs
Duration                                 : 2 h 33 min
Bit rate                                 : 2 897 b/s
Count of elements                        : 930
Stream size                              : 3.19 MiB (0%)
Language                                 : Icelandic
Default                                  : No
Forced                                   : No

Text #13
ID                                       : 16
Format                                   : VobSub
Muxing mode                              : zlib
Codec ID                                 : S_VOBSUB
Codec ID/Info                            : Picture based subtitle format used on DVDs
Duration                                 : 2 h 33 min
Bit rate                                 : 3 062 b/s
Count of elements                        : 928
Stream size                              : 3.37 MiB (0%)
Language                                 : Indonesian
Default                                  : No
Forced                                   : No

Text #14
ID                                       : 17
Format                                   : VobSub
Muxing mode                              : zlib
Codec ID                                 : S_VOBSUB
Codec ID/Info                            : Picture based subtitle format used on DVDs
Duration                                 : 2 h 33 min
Bit rate                                 : 1 835 b/s
Count of elements                        : 929
Stream size                              : 2.02 MiB (0%)
Language                                 : Korean
Default                                  : No
Forced                                   : No

Text #15
ID                                       : 18
Format                                   : VobSub
Muxing mode                              : zlib
Codec ID                                 : S_VOBSUB
Codec ID/Info                            : Picture based subtitle format used on DVDs
Duration                                 : 2 h 33 min
Bit rate                                 : 2 527 b/s
Count of elements                        : 928
Stream size                              : 2.78 MiB (0%)
Language                                 : Latvian
Default                                  : No
Forced                                   : No

Text #16
ID                                       : 19
Format                                   : VobSub
Muxing mode                              : zlib
Codec ID                                 : S_VOBSUB
Codec ID/Info                            : Picture based subtitle format used on DVDs
Duration                                 : 2 h 33 min
Bit rate                                 : 2 785 b/s
Count of elements                        : 946
Stream size                              : 3.06 MiB (0%)
Language                                 : Lithuanian
Default                                  : No
Forced                                   : No

Text #17
ID                                       : 20
Format                                   : VobSub
Muxing mode                              : zlib
Codec ID                                 : S_VOBSUB
Codec ID/Info                            : Picture based subtitle format used on DVDs
Duration                                 : 2 h 33 min
Bit rate                                 : 2 441 b/s
Count of elements                        : 881
Stream size                              : 2.68 MiB (0%)
Language                                 : Polish
Default                                  : No
Forced                                   : No

Text #18
ID                                       : 21
Format                                   : VobSub
Muxing mode                              : zlib
Codec ID                                 : S_VOBSUB
Codec ID/Info                            : Picture based subtitle format used on DVDs
Duration                                 : 2 h 33 min
Bit rate                                 : 2 988 b/s
Count of elements                        : 922
Stream size                              : 3.29 MiB (0%)
Language                                 : Portuguese
Default                                  : No
Forced                                   : No

Text #19
ID                                       : 22
Format                                   : VobSub
Muxing mode                              : zlib
Codec ID                                 : S_VOBSUB
Codec ID/Info                            : Picture based subtitle format used on DVDs
Duration                                 : 2 h 33 min
Bit rate                                 : 2 605 b/s
Count of elements                        : 808
Stream size                              : 2.86 MiB (0%)
Language                                 : Romanian
Default                                  : No
Forced                                   : No

Text #20
ID                                       : 23
Format                                   : VobSub
Muxing mode                              : zlib
Codec ID                                 : S_VOBSUB
Codec ID/Info                            : Picture based subtitle format used on DVDs
Duration                                 : 2 h 33 min
Bit rate                                 : 2 837 b/s
Count of elements                        : 928
Stream size                              : 3.12 MiB (0%)
Language                                 : Russian
Default                                  : No
Forced                                   : No

Text #21
ID                                       : 24
Format                                   : VobSub
Muxing mode                              : zlib
Codec ID                                 : S_VOBSUB
Codec ID/Info                            : Picture based subtitle format used on DVDs
Duration                                 : 2 h 33 min
Bit rate                                 : 2 729 b/s
Count of elements                        : 924
Stream size                              : 3.00 MiB (0%)
Language                                 : Serbian
Default                                  : No
Forced                                   : No

Text #22
ID                                       : 25
Format                                   : VobSub
Muxing mode                              : zlib
Codec ID                                 : S_VOBSUB
Codec ID/Info                            : Picture based subtitle format used on DVDs
Duration                                 : 2 h 33 min
Bit rate                                 : 2 152 b/s
Count of elements                        : 772
Stream size                              : 2.37 MiB (0%)
Language                                 : Slovenian
Default                                  : No
Forced                                   : No

Text #23
ID                                       : 26
Format                                   : VobSub
Muxing mode                              : zlib
Codec ID                                 : S_VOBSUB
Codec ID/Info                            : Picture based subtitle format used on DVDs
Duration                                 : 2 h 33 min
Bit rate                                 : 2 861 b/s
Count of elements                        : 927
Stream size                              : 3.15 MiB (0%)
Language                                 : Thai
Default                                  : No
Forced                                   : No

Text #24
ID                                       : 27
Format                                   : VobSub
Muxing mode                              : zlib
Codec ID                                 : S_VOBSUB
Codec ID/Info                            : Picture based subtitle format used on DVDs
Duration                                 : 2 h 33 min
Bit rate                                 : 2 718 b/s
Count of elements                        : 924
Stream size                              : 2.99 MiB (0%)
Language                                 : Turkish
Default                                  : No
Forced                                   : No

Text #25
ID                                       : 28
Format                                   : VobSub
Muxing mode                              : zlib
Codec ID                                 : S_VOBSUB
Codec ID/Info                            : Picture based subtitle format used on DVDs
Duration                                 : 2 h 33 min
Bit rate                                 : 2 845 b/s
Count of elements                        : 929
Stream size                              : 3.13 MiB (0%)
Language                                 : Ukrainian
Default                                  : No
Forced                                   : No

Menu
00:00:00.000                             : en:Chapter 01
00:01:52.028                             : en:Chapter 02
00:05:38.379                             : en:Chapter 03
00:09:58.431                             : en:Chapter 04
00:13:13.292                             : en:Chapter 05
00:15:24.715                             : en:Chapter 06
00:20:06.288                             : en:Chapter 07
00:22:54.623                             : en:Chapter 08
00:25:39.454                             : en:Chapter 09
00:31:12.662                             : en:Chapter 10
00:37:00.384                             : en:Chapter 11
00:41:00.624                             : en:Chapter 12
00:44:11.148                             : en:Chapter 13
00:49:35.847                             : en:Chapter 14
00:52:41.158                             : en:Chapter 15
00:56:48.071                             : en:Chapter 16
01:00:04.309                             : en:Chapter 17
01:03:24.926                             : en:Chapter 18
01:06:58.723                             : en:Chapter 19
01:11:43.299                             : en:Chapter 20
01:14:40.392                             : en:Chapter 21
01:18:55.397                             : en:Chapter 22
01:21:21.877                             : en:Chapter 23
01:24:20.638                             : en:Chapter 24
01:26:39.485                             : en:Chapter 25
01:30:28.089                             : en:Chapter 26
01:34:01.469                             : en:Chapter 27
01:37:16.163                             : en:Chapter 28
01:41:46.183                             : en:Chapter 29
01:44:55.539                             : en:Chapter 30
01:48:06.229                             : en:Chapter 31
01:52:26.322                             : en:Chapter 32
01:55:24.083                             : en:Chapter 33
02:00:03.446                             : en:Chapter 34
02:06:24.326                             : en:Chapter 35
02:08:21.193                             : en:Chapter 36
02:10:46.630                             : en:Chapter 37
02:13:06.311                             : en:Chapter 38
02:16:37.355                             : en:Chapter 39
02:22:57.193                             : en:Chapter 40
02:24:30.912                             : en:Chapter 41


Files:

The Last Samurai 2003 (1080p Bluray x265 HEVC 10bit AAC 5.1 Tigole) Featurettes
  • A World of Detail.mkv (40.3 MB)
  • Deleted Scenes.mkv (25.2 MB)
  • Edward Zwick - A Director's Video Journal.mkv (137.1 MB)
  • From Soldier to Samurai.mkv (28.9 MB)
  • History vs. Hollywood.mkv (103.0 MB)
  • Imperial Army Basic Training.mkv (40.1 MB)
  • Japan Premieres.mkv (24.6 MB)
  • Making an Epic.mkv (91.6 MB)
  • Silk and Armor.mkv (34.0 MB)
  • Tom Cruise - A Warrior's Journey.mkv (57.2 MB)
  • Trailer.mkv (3.5 MB)
  • The Last Samurai 2003 (1080p x265 10bit Tigole).mkv (3.4 GB)

Comments

Code:

  • http://explodie.org:6969/announce
  • http://tracker.tfile.me/announce
  • http://bigfoot1942.sektori.org:6969/announce
  • udp://eddie4.nl:6969/announce
  • udp://tracker4.piratux.com:6969/announce
  • udp://tracker.trackerfix.com:80/announce
  • udp://tracker.pomf.se:80/announce
  • udp://torrent.gresille.org:80/announce
  • udp://9.rarbg.me:2710/announce
  • udp://tracker.leechers-paradise.org:6969/announce
  • udp://glotorrents.pw:6969/announce
  • udp://tracker.opentrackr.org:1337/announce
  • udp://tracker.blackunicorn.xyz:6969/announce
  • udp://tracker.internetwarriors.net:1337/announce
  • udp://p4p.arenabg.ch:1337/announce
  • udp://tracker.coppersurfer.tk:6969/announce
  • udp://9.rarbg.to:2710/announce
  • udp://tracker.openbittorrent.com:80/announce
  • udp://glotorrents.pw:6969/announce
  • udp://tracker.coppersurfer.tk:6969/announce
  • udp://tracker.opentrackr.org:1337/announce
  • udp://tracker.torrent.eu.org:451/announce
SitemapScience Fiction | Ballroom e Youkoso Episode 24 | BDRipVF The Fall of the Krays Parodies | Ingrid Bisu | Employment and Online Education - 527 Words