Haseena (2018) Hindi HDRip x264 AAC by Full4movies

  • Category Movies
  • Type HD
  • Language Hindi
  • Total size 725.9 MB
  • Uploaded By shmasti
  • Downloads 140
  • Last checked 16 minutes ago
  • Date uploaded 13 hours ago
  • Seeders 3
  • Leechers 10

Infohash : 26B275AED187226904027233AA71C7DE26A7FF00



General
Complete name : Haseena (2018) Hindi HDRip x264 AAC by Full4movies.mkv
Format : Matroska
Format version : Version 4 / Version 2
File size : 726 MiB
Duration : 2 h 7 min
Overall bit rate : 799 kb/s
Movie name : www.Full4movies.co
Encoded date : UTC 2018-10-04 18:54:10
Writing application : mkvmerge v8.1.0 ('Psychedelic Postcard') 32bit
Writing library : libebml v1.3.1 + libmatroska v1.4.2

Video
ID : 1
Format : AVC
Format/Info : Advanced Video Codec
Format profile : [email protected]
Format settings, CABAC : Yes
Format settings, RefFrames : 4 frames
Codec ID : V_MPEG4/ISO/AVC
Duration : 2 h 7 min
Bit rate : 716 kb/s
Width : 720 pixels
Height : 306 pixels
Display aspect ratio : 2.35:1
Frame rate mode : Constant
Frame rate : 24.000 FPS
Color space : YUV
Chroma subsampling : 4:2:0
Bit depth : 8 bits
Scan type : Progressive
Bits/(Pixel*Frame) : 0.135
Stream size : 652 MiB (90%)
Writing library : x264 core 155 r2901 7d0ff22
Default : Yes
Forced : No
Color range : Limited
Color primaries : BT.709
Transfer characteristics : BT.709
Matrix coefficients : BT.709

Audio
ID : 2
Format : MPEG Audio
Format version : Version 1
Format profile : Layer 3
Mode : Joint stereo
Mode extension : MS Stereo
Codec ID : A_MPEG/L3
Codec ID/Hint : MP3
Duration : 2 h 7 min
Bit rate mode : Constant
Bit rate : 80.0 kb/s
Channel(s) : 2 channels
Sampling rate : 48.0 kHz
Frame rate : 41.667 FPS (1152 SPF)
Compression mode : Lossy
Delay relative to video : 21 ms
Stream size : 72.7 MiB (10%)
Writing library : LAME3.100
Language : Hindi
Default : Yes
Forced : No

Screen Shoots

Files:

  • Haseena (2018) Hindi HDRip x264 AAC by Full4movies.mkv (725.9 MB)

There are currently no comments. Feel free to leave one :)

Code:

  • udp://tracker.coppersurfer.tk:6969/announce
  • udp://tracker.leechers-paradise.org:6969/announce
  • udp://tracker.pirateparty.gr:6969/announce
  • udp://tracker.coppersurfer.tk:6969
  • udp://open.demonii.si:1337/announce
  • udp://tracker.tiny-vps.com:6969/announce
  • udp://9.rarbg.me:2710/announce
  • udp://9.rarbg.to:2710/announce
  • udp://public.popcorn-tracker.org:6969/announce
  • udp://tracker.torrent.eu.org:451/announce
  • udp://tracker.vanitycore.co:6969/announce
  • udp://ipv4.tracker.harry.lu:80/announce
  • udp://tracker.opentrackr.org:1337/announce
  • udp://exodus.desync.com:6969/announce
  • udp://tracker.cypherpunks.ru:6969/announce
SitemapMia and Me - Season 3 | Cień anioła / Dark Angel (2... | Deep.3D.2017.MULTI.COMPLETE.... Motion Plus Remoto y Controlador Nunchuck + Caso Conjunto Para Nintendo Wii | NUEVO Nikon AF-S NIKKOR 50mm f/1.4 G Lens | The Invisible (2007) BDRip Tamil + Hindi + Eng Dubbed Movie Watch Online Free