Phamous (2018) Hindi HDRip x264 AAC by Full4movies

  • Category Movies
  • Type h.264/x264
  • Language Hindi
  • Total size 470.3 MB
  • Uploaded By shmasti
  • Downloads 1
  • Last checked 8 minutes ago
  • Date uploaded 8 minutes ago
  • Seeders 0
  • Leechers 0

Infohash : 81E8ADE931D744EE0419CB6F69502056E1722D0F



General
Complete name : Phamous (2018) Hindi HDRip x264 AAC by Full4movies.mkv
Format : Matroska
Format version : Version 4 / Version 2
File size : 470 MiB
Duration : 1 h 54 min
Overall bit rate : 576 kb/s
Movie name : www.Full4movies.co
Encoded date : UTC 2018-10-06 07:33:34
Writing application : mkvmerge v8.1.0 ('Psychedelic Postcard') 32bit
Writing library : libebml v1.3.1 + libmatroska v1.4.2

Video
ID : 1
Format : AVC
Format/Info : Advanced Video Codec
Format profile : [email protected]
Format settings, CABAC : Yes
Format settings, RefFrames : 5 frames
Codec ID : V_MPEG4/ISO/AVC
Duration : 1 h 54 min
Bit rate : 512 kb/s
Width : 720 pixels
Height : 306 pixels
Display aspect ratio : 2.35:1
Frame rate mode : Constant
Frame rate : 29.970 (30000/1001) FPS
Color space : YUV
Chroma subsampling : 4:2:0
Bit depth : 8 bits
Scan type : Progressive
Bits/(Pixel*Frame) : 0.078
Stream size : 415 MiB (88%)
Writing library : x264 core 148 r2643 5c65704
Default : Yes
Forced : No

Audio
ID : 2
Format : AAC
Format/Info : Advanced Audio Codec
Format profile : LC
Codec ID : A_AAC
Duration : 1 h 54 min
Bit rate : 64.7 kb/s
Channel(s) : 2 channels
Channel positions : Front: L R
Sampling rate : 48.0 kHz
Frame rate : 46.875 FPS (1024 SPF)
Compression mode : Lossy
Delay relative to video : -21 ms
Stream size : 52.8 MiB (11%)
Language : Hindi
Default : Yes
Forced : No

Screen Shoots

Files:

  • Phamous (2018) Hindi HDRip x264 AAC by Full4movies.mkv (470.3 MB)

There are currently no comments. Feel free to leave one :)

Code:

  • udp://tracker.coppersurfer.tk:6969/announce
  • udp://tracker.leechers-paradise.org:6969/announce
  • udp://tracker.pirateparty.gr:6969/announce
  • udp://tracker.coppersurfer.tk:6969
  • udp://open.demonii.si:1337/announce
  • udp://tracker.tiny-vps.com:6969/announce
  • udp://9.rarbg.me:2710/announce
  • udp://9.rarbg.to:2710/announce
  • udp://public.popcorn-tracker.org:6969/announce
  • udp://tracker.torrent.eu.org:451/announce
  • udp://tracker.vanitycore.co:6969/announce
  • udp://ipv4.tracker.harry.lu:80/announce
  • udp://tracker.opentrackr.org:1337/announce
  • udp://exodus.desync.com:6969/announce
  • udp://tracker.cypherpunks.ru:6969/announce
SitemapSpartacus (13) | Fashion BTS Backpack School Bags for Teenage Girls Travel Shoulder Backpack Bags Canvas Print BTS Ru | Свадебные платья размера плюс Movavi video suite 1 | Bob's Burgers St.9 Ep.1 | GP Records