Final Score 2018 720p BRRip x264 ESub [MW]

  • Category Movies
  • Type HD
  • Language English
  • Total size 884.1 MB
  • Uploaded By moviezworldz
  • Downloads 85
  • Last checked 44 minutes ago
  • Date uploaded 9 hours ago
  • Seeders 15
  • Leechers 20

Final Score

Action

Stadium is seized by a group of heavily armed criminals during a major sporting event. An ex-soldier must use all his military skills to save the 35,000 capacity crowd, one of which is the daughter of his fallen comrade.

Infohash : F40790FDDD40C28BF3C0C740855EF612926E5BFF





General
Format : Matroska
Format version : Version 4 / Version 2
File size : 884 MiB
Duration : 1 h 44 min
Overall bit rate : 1 180 kb/s

Video
ID : 1
Format : AVC
Format/Info : Advanced Video Codec
Format profile : [email protected]
Format settings : CABAC / 4 Ref Frames
Format settings, CABAC : Yes
Format settings, RefFrames : 4 frames
Codec ID : V_MPEG4/ISO/AVC
Duration : 1 h 44 min
Bit rate : 1 100 kb/s
Width : 1 280 pixels
Height : 540 pixels
Display aspect ratio : 2.40:1
Frame rate mode : Constant
Frame rate : 23.976 (24000/1001) FPS
Color space : YUV
Chroma subsampling : 4:2:0
Bit depth : 8 bits
Scan type : Progressive
Bits/(Pixel*Frame) : 0.066
Stream size : 798 MiB (90%)
Writing library : x264 core 155 r2901 7d0ff22
Default : Yes
Forced : No

Audio
ID : 2
Format : AAC
Format/Info : Advanced Audio Codec
Format profile : LC
Codec ID : A_AAC-2
Duration : 1 h 44 min
Bit rate : 112 kb/s
Channel(s) : 2 channels
Channel positions : Front: L R
Sampling rate : 48.0 kHz
Frame rate : 46.875 FPS (1024 SPF)
Compression mode : Lossy
Stream size : 84.2 MiB (10%)
Language : English
Default : Yes
Forced : No

Text
ID : 3
Format : UTF-8
Codec ID : S_TEXT/UTF8
Codec ID/Info : UTF-8 Plain Text
Duration : 1 h 40 min
Bit rate : 72 b/s
Count of elements : 1756
Stream size : 53.3 KiB (0%)
Language : English
Default : Yes
Forced : No


Click To Enlarge Image







Files:

Final Score 2018 720p BRRip x264 ESub [MW]
  • Final Score 2018 720p BRRip x264 ESub [MW].mkv (884.1 MB)

There are currently no comments. Feel free to leave one :)

Code:

  • udp://tracker.coppersurfer.tk:6969/announce
  • udp://tracker.pirateparty.gr:6969/announce
  • udp://tracker.coppersurfer.tk:6969/announce
  • udp://tracker.tiny-vps.com:6969/announce
  • udp://9.rarbg.me:2740/announce
  • udp://9.rarbg.to:2790/announce
  • udp://public.popcorn-tracker.org:6969/announce
  • udp://tracker.vanitycore.co:6969/announce
  • udp://tracker.opentrackr.org:1337/announce
  • udp://open.stealth.si:80/announce
SitemapLa Petite Vie | Interieur | [ Zobacz cały opis... ] Cavo Antenna Tv Satellitare 100Mt Coassiale Dvb 5Mm Sky St53A Digitale Matassa | Kugeln Stahlkugeln 1mm bis 28 mm Zwille Steinschleuder Kugellager Softair | Diamond no Ace OVA Episode 4 English Subbed