Oculus (2013) + Extras (1080p BluRay x265 HEVC 10bit AAC 5.1 Engl...

  • Category Movies
  • Type HEVC/x265
  • Language English
  • Total size 3.6 GB
  • Uploaded By QxR
  • Downloads 356
  • Last checked 4 hours ago
  • Date uploaded 22 hours ago
  • Seeders 43
  • Leechers 33

Oculus

Horror

A woman tries to exonerate her brother's murder conviction by proving that the crime was committed by a supernatural phenomenon.

Infohash : E70F825C66EAB5AD96661061941C53E36DEBE602



http://www.imdb.com/title/tt2388715/





Media Information

Code:

General
Format : Matroska
Format version : Version 4 / Version 2
File size : 2.98 GiB
Duration : 1 h 43 min
Overall bit rate : 4 138 kb/s
Movie name : Oculus 2013 (1080p BluRay x265 clearFoster)
Encoded date : UTC 2018-11-23 09:48:10
Writing application : mkvmerge v28.2.0 ('The Awakening') 64-bit
Writing library : libebml v1.3.6 + libmatroska v1.4.9
Cover : Yes
Attachments : cover.jpg
Writing frontend : cFstr

Video
ID : 1
Format : HEVC
Format/Info : High Efficiency Video Coding
Format profile : Main [email protected]@Main
Codec ID : V_MPEGH/ISO/HEVC
Duration : 1 h 43 min
Bit rate : 3 497 kb/s
Width : 1 920 pixels
Height : 800 pixels
Display aspect ratio : 2.40:1
Frame rate mode : Constant
Frame rate : 23.976 (24000/1001) FPS
Color space : YUV
Chroma subsampling : 4:2:0
Bit depth : 10 bits
Bits/(Pixel*Frame) : 0.095
Stream size : 2.52 GiB (85%)
Writing library : x265 2.7+1-2aa737a99f51:[Windows][MSVC 1900][64 bit] 10bit
Encoding settings : cpuid=1105919 / frame-threads=2 / numa-pools=6 / wpp / no-pmode / no-pme / no-psnr / no-ssim / log-level=2 / input-csp=1 / input-res=1920x800 / interlace=0 / total-frames=148244 / level-idc=41 / high-tier=1 / uhd-bd=0 / ref=4 / no-allow-non-conformance / no-repeat-headers / annexb / no-aud / no-hrd / info / hash=0 / no-temporal-layers / open-gop / min-keyint=23 / keyint=400 / gop-lookahead=0 / bframes=4 / b-adapt=2 / b-pyramid / bframe-bias=0 / rc-lookahead=50 / lookahead-slices=4 / scenecut=40 / radl=0 / no-intra-refresh / ctu=64 / min-cu-size=8 / no-rect / no-amp / max-tu-size=32 / tu-inter-depth=1 / tu-intra-depth=1 / limit-tu=0 / rdoq-level=2 / dynamic-rd=0.00 / no-ssim-rd / signhide / no-tskip / nr-intra=0 / nr-inter=0 / no-constrained-intra / no-strong-intra-smoothing / max-merge=3 / limit-refs=3 / limit-modes / me=3 / subme=3 / merange=57 / temporal-mvp / weightp / no-weightb / no-analyze-src-pics / deblock=-2:-1 / no-sao / no-sao-non-deblock / rd=4 / no-early-skip / rskip / no-fast-intra / no-tskip-fast / no-cu-lossless / no-b-intra / no-splitrd-skip / rdpenalty=0 / psy-rd=2.00 / psy-rdoq=0.00 / no-rd-refine / no-lossless / cbqpoffs=0 / crqpoffs=0 / rc=crf / crf=18.0 / qcomp=0.70 / qpstep=4 / stats-write=0 / stats-read=0 / vbv-maxrate=4500 / vbv-bufsize=4500 / vbv-init=0.9 / crf-max=0.0 / crf-min=0.0 / ipratio=1.40 / pbratio=1.30 / aq-mode=3 / aq-strength=0.90 / cutree / zone-count=0 / no-strict-cbr / qg-size=32 / no-rc-grain / qpmax=69 / qpmin=0 / no-const-vbv / sar=0 / overscan=0 / videoformat=5 / range=0 / colorprim=2 / transfer=2 / colormatrix=2 / chromaloc=0 / display-window=0 / max-cll=0,0 / min-luma=0 / max-luma=1023 / log2-max-poc-lsb=8 / vui-timing-info / vui-hrd-info / slices=1 / no-opt-qp-pps / no-opt-ref-list-length-pps / multi-pass-opt-rps / scenecut-bias=0.05 / no-opt-cu-delta-qp / aq-motion / no-hdr / no-hdr-opt / no-dhdr10-opt / analysis-reuse-level=10 / scale-factor=0 / refine-intra=0 / refine-inter=0 / refine-mv=0 / no-limit-sao / ctu-info=0 / no-lowpass-dct / refine-mv-type=0 / copy-pic=1
Default : Yes
Forced : No

Audio #1
ID : 2
Format : AAC
Format/Info : Advanced Audio Codec
Format profile : LC
Codec ID : A_AAC
Duration : 1 h 43 min
Bit rate : 398 kb/s
Channel(s) : 6 channels
Channel positions : Front: L C R, Side: L R, LFE
Sampling rate : 48.0 kHz
Frame rate : 46.875 FPS (1024 spf)
Compression mode : Lossy
Delay relative to video : 20 ms
Stream size : 293 MiB (10%)
Language : English
Default : Yes
Forced : No

Audio #2
ID : 3
Format : AC-3
Format/Info : Audio Coding 3
Mode extension : CM (complete main)
Format settings, Endianness : Big
Codec ID : A_AC3
Duration : 1 h 42 min
Bit rate mode : Constant
Bit rate : 224 kb/s
Channel(s) : 6 channels
Channel positions : Front: L C R, Side: L R, LFE
Sampling rate : 48.0 kHz
Frame rate : 31.250 FPS (1536 spf)
Bit depth : 16 bits
Compression mode : Lossy
Delay relative to video : 1 ms
Stream size : 165 MiB (5%)
Language : Hindi
Default : No
Forced : No

Subtitle #1
ID : 4
Format : UTF-8
Codec ID : S_TEXT/UTF8
Codec ID/Info : UTF-8 Plain Text
Duration : 1 h 36 min
Bit rate : 44 b/s
Count of elements : 940
Stream size : 31.4 KiB (0%)
Language : English
Default : Yes
Forced : No

Subtitle #2
ID : 5
Format : PGS
Muxing mode : zlib
Codec ID : S_HDMV/PGS
Codec ID/Info : Picture based subtitle format used on BDs/HD-DVDs
Duration : 1 h 36 min
Bit rate : 22.4 kb/s
Count of elements : 1430
Stream size : 15.4 MiB (1%)
Language : French
Default : No
Forced : No

Subtitle #3
ID : 6
Format : PGS
Muxing mode : zlib
Codec ID : S_HDMV/PGS
Codec ID/Info : Picture based subtitle format used on BDs/HD-DVDs
Duration : 1 h 36 min
Bit rate : 24.0 kb/s
Count of elements : 1244
Stream size : 16.6 MiB (1%)
Language : Dutch
Default : No
Forced : No

Menu
00:00:00.000 : en:00:00:00.000
00:10:20.453 : en:00:10:20.453
00:23:31.243 : en:00:23:31.243
00:35:26.207 : en:00:35:26.207
00:45:06.120 : en:00:45:06.120
00:56:20.961 : en:00:56:20.961
01:07:38.346 : en:01:07:38.346
01:20:18.188 : en:01:20:18.188
01:33:15.340 : en:01:33:15.340

Source Information

Code:

Release:
BD50


Note From QxR:

Quote:

Whilst we are happy for our releases to be re-posted on a platform we aren't on, please do so in an 'as-is' format. We ask that you do not create a new torrent, include all descriptions you see above including the QxR logo, tags, notes and screenshots. If you'd like to become a permanent poster on a website we don't post to, feel free to get in contact with a QxR member.


Files:

Oculus (2013) + Extras (1080p BluRay x265 HEVC 10bit AAC 5.1 Natty) Featurettes
  • Deleted Scenes - Coda.mkv (17.9 MB)
  • Deleted Scenes - Dead Plants.mkv (8.9 MB)
  • Deleted Scenes - Kaylie and Tim.mkv (13.3 MB)
  • Deleted Scenes - Marie Going Crazier.mkv (12.1 MB)
  • Deleted Scenes - The Woman in the Office.mkv (36.0 MB)
  • Deleted Scenes - Tim Buys a Phone.mkv (15.0 MB)
  • Inside The Mirror - Creating Oculus.mkv (120.6 MB)
  • Oculus Chapter 3 – The Man with the Plan.mkv (318.3 MB)
  • Official Trailer.mkv (29.6 MB)
  • Sneak Peak.mkv (4.4 MB)
  • Theatrical Trailer.mkv (25.2 MB)
  • Oculus (2013) (1080p BluRay x265 Natty).mkv (3.0 GB)

Comments

Code:

  • udp://tracker.coppersurfer.tk:6969/announce
  • udp://tracker.opentrackr.org:1337/announce
  • udp://tracker.zer0day.to:1337/announce
  • udp://tracker.torrent.eu.org:451/announce
  • udp://tracker.leechers-paradise.org:6969/announce
  • udp://p4p.arenabg.com:1337/announce
  • udp://tracker.internetwarriors.net:1337/announce
SitemapThe Man in the High Castle | Baker Street Peculiars (001-004+TPB) (2016-2017) (digital) (Minutemen-... | Ladegeräte Finalmouse Air58 Ninja - Cherry Blossom Red Preorder. International Shipping! | Iran (Islamic Republic of) | b-Vibe Remote Control Black Rimming Plug 2 W/ Free Lube